Soldiers of Fortune

TÍTULO ORIGINAL:
Soldiers of Fortune
AÑO:
2012
GÉNERO:
Acción, Aventuras
DURACIÓN
93 min.
PAÍS:
Rusia
DIRECTOR:
Maksim Korostyshevsky
GUIÓN:
Robert Crombie, Alexandre Coscas
MÚSICA :
Joseph LoDuca
REPARTO:
Jon Barton, Sean Bean, Charlie Bewley, James Cromwell, Ryan Donowho, Dominic Monaghan, Shawn Parsons, Ving Rhames, Freddy Rodríguez, Christian Slater, Colm Meaney
PRODUCTORA:
Globus-film / Jeff Most Productions / Most / Rice Films

SINOPSIS

Algunos millonarios pagan sumas exorbitantes para poder involucrase y sentir la emoción de una aventura militar. Sin embargo, en esta ocasión las cosas no salen como se habían planeado.

DESCARGA DIRECTA

PELICULA EN AVI

INFO:

Soldiers of Fortune 2012 BrRip H264 [Aud:Ing/Sub:Esp.Lat]Format : MPEG-4
Format profile : Base Media
Codec ID : isom
File size : 310 MiB
Duration : 1h 33mn
Overall bit rate : 461 Kbps
Writing application : Lavf52.40.0
Video #1
ID : 1
Format : AVC
Format/Info : Advanced Video Codec
Format profile : Baseline@L3.0
Format settings, CABAC : No
Format settings, ReFrames : 1 frame
Codec ID : avc1
Codec ID/Info : Advanced Video Coding
Duration : 1h 33mn
Bit rate mode : Variable
Bit rate : 329 Kbps
Nominal bit rate : 350 Kbps
Width : 600 pixels
Height : 300 pixels
Display aspect ratio : 2.000
Frame rate mode : Variable
Frame rate : 23.949 fps
Original frame rate : 25.000 fps
Minimum frame rate : 1.786 fps
Maximum frame rate : 25.000 fps
Color space : YUV
Chroma subsampling : 4:2:0
Bit depth : 8 bits
Scan type : Progressive
Bits/(Pixel*Frame) : 0.076
Stream size : 221 MiB (71%)
Writing library : x264 core 79
Encoding settings : cabac=0 / ref=1 / deblock=1:0:0 / analyse=0×1:0×131
Audio #2
ID : 2
Format : AAC
Format/Info : Advanced Audio Codec
Format profile : LC
Codec ID : 40
Duration : 1h 33mn
Bit rate mode : Variable
Bit rate : 128 Kbps
Channel(s) : 2 channels
Channel positions : Front: L R
Sampling rate : 44.1 KHz
Compression mode : Lossy
Stream size : 85.9 MiB (28%)

LINKS:

OPCION 1:

MOSTRAR LINKS »

http://uploaded.net/file/zbivqk6a

  • 2,228 views
  • 1 Estrella2 Estrellas3 Estrellas4 Estrellas5 Estrellas (No Ratings Yet)

2 Responses to “Soldiers of Fortune”

  1. matalokos77 Says:

    espero sea buena.. bajandoooo!!

  2. Sakyo Says:

    Segun comentarios la cinta es bastante entretenida. Nos comentas que tal… Saludos!! y gracias por la visita.

Leave a Reply